No audio on old camera & phone video

  Thread Rating:
  • 0 Votes - 0 Average
  • 1
  • 2
  • 3
  • 4
  • 5
Post Reply
Steph09 Offline
Junior Member
Posts: 11
Joined: Apr 2010
Reputation: 0
Post: #1
Hi, I have lot of video taken from a 10yr old digital camera yet since xbmx 13 i have not had any sound on these files in xbmc.

i today download the latest 14 alpha from home page & i still get no sound on these films.

here is codec detail-
Quote:Audio
ID : 1
Format : ADPCM
Codec ID : 11
Codec ID/Hint : Intel
Description of the codec : IMA ADPCM
Duration : 20s 858ms
Bit rate : 32.2 Kbps
Channel(s) : 1 channel
Sampling rate : 8 000 Hz
Bit depth : 4 bits
Stream size : 82.0 KiB (7%)
and i include a small video taken from camera-
http://we.tl/1FhLPK0PD9

I also have no sound on video recorded with htc phone-
Quote:Audio
ID : 2
Format : AMR
Format/Info : Adaptive Multi-Rate
Format profile : Narrow band
Codec ID : samr
Duration : 5s 760ms
Bit rate mode : Constant
Bit rate : 12.8 Kbps
Channel(s) : 1 channel
Sampling rate : 8 000 Hz
Bit depth : 13 bits
Stream size : 9.00 KiB (0%)
Writing library : pvmm
Language : English
Encoded date : UTC 2014-06-17 18:35:36
Tagged date : UTC 2014-06-17 18:35:36


again sample video from phone-
http://we.tl/cZhoHLg5q7


is it just an unspupported format or something can be fixed? i thank in advance for reply.
(This post was last modified: 2014-08-02 22:16 by Steph09.)
find quote
Martijn Offline
Team Kodi
Posts: 11,607
Joined: Jul 2011
Reputation: 167
Location: Dawn of time
Post: #2
i do get sound on both files (14.0 on win32)
the .3gp audio is just really soft

Always read the XBMC online-manual, FAQ and search the forums before posting.
Do NOT e-mail Team-XBMC members asking for support. Read/follow the forum rules.
For troubleshooting and bug reporting, make sure you read this first

For your mediacenter artwork go to
[Image: fanarttv.png]
(This post was last modified: 2014-08-02 15:32 by Martijn.)
find quote
Steph09 Offline
Junior Member
Posts: 11
Joined: Apr 2010
Reputation: 0
Post: #3
thank you for reply, i am definitely not getting sound on either even with volume turned up.

here is how i have my sound settings, maybe its something set not well there?
http://i57.tinypic.com/148zsat.png


i have my desktop pc hooked up to a samsung tv using a hdmi port on my HIS Radeon HD 7850 iceQ X.
i did get sound on video taken with camera and phone on the older version of xbmc, just the latest 13 builds which i dont get the sound on.
(This post was last modified: 2014-08-02 22:24 by Steph09.)
find quote